<?xml version="1.0" standalone="no"?>
<!DOCTYPE svg PUBLIC "-//W3C//DTD SVG 1.1//EN" "http://www.w3.org/Graphics/SVG/1.1/DTD/svg11.dtd" >
<svg xmlns="http://www.w3.org/2000/svg">
<metadata>
Created by FontForge 20120731 at Mon Apr 25 21:38:11 2016
 By admin
</metadata>
<defs>
<font id="iconfont" horiz-adv-x="1024" >
  <font-face 
    font-family="iconfont"
    font-weight="500"
    font-stretch="normal"
    units-per-em="1024"
    panose-1="2 0 6 3 0 0 0 0 0 0"
    ascent="896"
    descent="-128"
    x-height="792"
    bbox="0 -148 1024 832.4"
    underline-thickness="50"
    underline-position="-100"
    unicode-range="U+0078-E791"
  />
<missing-glyph horiz-adv-x="374" 
d="M34 0v682h272v-682h-272zM68 34h204v614h-204v-614z" />
    <glyph glyph-name=".notdef" horiz-adv-x="374" 
d="M34 0v682h272v-682h-272zM68 34h204v614h-204v-614z" />
    <glyph glyph-name=".null" horiz-adv-x="0" 
 />
    <glyph glyph-name="nonmarkingreturn" horiz-adv-x="341" 
 />
    <glyph glyph-name="x" unicode="x" horiz-adv-x="1001" 
d="M281 543q-27 -1 -53 -1h-83q-18 0 -36.5 -6t-32.5 -18.5t-23 -32t-9 -45.5v-76h912v41q0 16 -0.5 30t-0.5 18q0 13 -5 29t-17 29.5t-31.5 22.5t-49.5 9h-133v-97h-438v97zM955 310v-52q0 -23 0.5 -52t0.5 -58t-10.5 -47.5t-26 -30t-33 -16t-31.5 -4.5q-14 -1 -29.5 -0.5
t-29.5 0.5h-32l-45 128h-439l-44 -128h-29h-34q-20 0 -45 1q-25 0 -41 9.5t-25.5 23t-13.5 29.5t-4 30v167h911zM163 247q-12 0 -21 -8.5t-9 -21.5t9 -21.5t21 -8.5q13 0 22 8.5t9 21.5t-9 21.5t-22 8.5zM316 123q-8 -26 -14 -48q-5 -19 -10.5 -37t-7.5 -25t-3 -15t1 -14.5
t9.5 -10.5t21.5 -4h37h67h81h80h64h36q23 0 34 12t2 38q-5 13 -9.5 30.5t-9.5 34.5q-5 19 -11 39h-368zM336 498v228q0 11 2.5 23t10 21.5t20.5 15.5t34 6h188q31 0 51.5 -14.5t20.5 -52.5v-227h-327z" />
    <glyph glyph-name="uniE604" unicode="&#xe604;" 
d="M274 332l-2 4l-1 4v3v3v4v4l1 4l1 5l2 5l2 5l2 5l4 6v4l1 3v5l2 6l2 6l1 3l1 2l2 3l2 2v4v4v6l1 7l1 8l2 10l3 10l2 6l2 6l3 5l2 7l3 6l3 6l4 7l5 7l2 4l2 3l5 7l5 7l6 7l6 7l6 7l7 7l9 8l5 4l6 6l7 4l7 4l7 4l8 3l8 4l8 3l8 3l9 2l9 2l9 2l9 2l9 1l10 1l9 1h10h9h10
l10 -2l10 -1l10 -1l9 -2l10 -2l9 -2l10 -3l9 -3l9 -4l9 -4l8 -4l9 -5l8 -5l7 -5l3 -3l3 -2l7 -5l5 -6l6 -5l5 -6l5 -6l5 -6l3 -7l4 -6l4 -6l3 -6l6 -13l2 -6l2 -6l3 -7l1 -6l2 -5l1 -6l3 -11l2 -10l2 -9l1 -8l1 -11l1 -2l1 -2l4 -6l2 -4l2 -4l3 -4l2 -6l1 -5l2 -6l1 -6l1 -3
v-4v-3v-4v-4l-1 -4l-2 -7l-2 -4l-1 -4v-1l1 -1l1 -4l9 -12l7 -10l3 -6l4 -7l4 -8l5 -8l4 -9l5 -10l3 -7l2 -6l2 -6l3 -6l1 -7l2 -5l2 -12l2 -11l1 -11v-5v-5v-4l-1 -5l-1 -9l-2 -8l-2 -7l-1 -3l-1 -4l-2 -2l-2 -3l-1 -2l-2 -3l-2 -2l-2 -1l-2 -1l-3 -1l-1 -1h-2h-1l-2 1
l-3 1l-1 1l-2 1l-2 2l-1 2l-3 3l-4 4l-2 5l-3 4l-2 4l-4 7l-4 8l-1 1l-2 -2l-1 -2l-2 -2l-2 -8l-5 -11l-5 -13l-4 -7l-4 -6l-5 -8l-6 -8l-2 -3l-4 -4l-7 -7v-1l1 -1l4 -2l16 -8l7 -4l7 -4l6 -4l6 -5l3 -2l2 -3l2 -3l2 -3l1 -3l1 -3l1 -3v-3v-2v-2l-1 -3l-1 -2l-1 -1l-1 -2
l-3 -4l-2 -3l-2 -3l-2 -2l-4 -3l-5 -3l-6 -2l-5 -3l-7 -2l-3 -1l-3 -1l-7 -2l-8 -1l-7 -2l-9 -1l-8 -1l-9 -1h-9h-9h-9l-10 1l-9 1l-10 1l-10 1l-10 1l-10 3l-10 2l-9 3l-10 3l-10 3l-5 2l-5 1l-3 1l-2 1h-4h-4l-10 1h-5l-6 1l-4 -4l-5 -3l-7 -4l-8 -4l-5 -2l-5 -2l-11 -5
l-6 -1l-7 -2l-8 -2h-6l-6 -1h-6l-7 -1h-7h-7h-15l-17 1l-16 1l-8 1l-7 2l-8 1l-8 1l-7 3l-7 1l-6 3l-6 2l-6 3l-4 3l-5 3l-2 2l-2 2l-2 2l-1 2l-2 2l-1 2l-1 5l-1 2v2v3v2v3l1 3v1v4v3l1 3l1 3l2 4l2 2l1 2l3 3l2 2l3 2l2 1l3 1l3 2l3 2l4 1l4 1l4 1h4l5 1h5l2 1h1v1l-1 1
l-3 2l-7 6l-5 4l-5 5l-6 5l-6 7l-6 8l-3 4l-3 4l-3 5l-3 6l-3 5l-2 6l-3 6l-3 7l-2 6l-2 8h-1v1h-1l-1 -1l-1 -1v-2l-1 -1l-1 -3l-3 -6l-2 -3l-3 -3l-2 -4l-4 -4l-3 -4l-4 -3l-3 -3l-4 -3l-5 -3l-4 -1l-5 -2h-5h-1h-1l-1 2l-1 1l-2 5l-1 2l-2 4l-1 4v3l-2 8v5v5v11v12l1 6
l1 7l1 6l2 7l2 7l2 7l3 7l3 7l4 7l3 8l4 7l5 7l5 7l5 8l5 5l5 7l6 6l3 3l3 3l5 4l5 5l8 7l6 4z" />
    <glyph glyph-name="uniE607" unicode="&#xe607;" 
d="M127 746h770v-86h-770v86zM830 230v339h-636v-339h636zM286 483h453v-166h-453v166zM693 35q41 64 77 147l-92 34q-36 -99 -84 -181h-161q-40 106 -91 181l-85 -34q53 -79 85 -147h-237v-86h814v86h-226z" />
    <glyph glyph-name="uniE628" unicode="&#xe628;" 
d="M16 599h992q7 0 11.5 4.5t4.5 11t-4.5 11.5t-11.5 5h-992q-7 0 -11.5 -5t-4.5 -11.5t4.5 -11t11.5 -4.5zM1008 316h-992q-7 0 -11.5 -4.5t-4.5 -11.5t4.5 -11.5t11.5 -4.5h992q7 0 11.5 4.5t4.5 11.5t-4.5 11.5t-11.5 4.5zM1008 1h-992q-7 0 -11.5 -4.5t-4.5 -11
t4.5 -11.5t11.5 -5h992q7 0 11.5 5t4.5 11.5t-4.5 11t-11.5 4.5z" />
    <glyph glyph-name="uniE644" unicode="&#xe644;" 
d="M96 0q-13 0 -22.5 9.5t-9.5 22.5v448q0 13 9.5 22.5t22.5 9.5t22.5 -9.5t9.5 -22.5v-448q0 -13 -9.5 -22.5t-22.5 -9.5zM864 512h-189q12 28 19.5 83t0.5 107q-5 45 -30 77.5t-63 45.5q-29 10 -56.5 6t-43.5 -21q-12 -12 -22 -35t-15 -41t-14 -52q-17 -70 -28 -89
q-14 -23 -40 -43t-41 -27t-28 -11h-90q-13 0 -22.5 -9.5t-9.5 -22.5v-448q0 -13 9.5 -22.5t22.5 -9.5h87q22 -12 49 -24t83.5 -26t108.5 -14h216q33 0 68.5 13t51 38.5t44 207.5t28.5 220q0 39 -31 68t-65 29zM833 21q-4 -7 -24.5 -14t-40.5 -7h-216q-23 0 -47.5 3.5t-45 9
t-40 12.5t-34 14t-25.5 12.5t-18 8.5l-6 4h-16h-64v384h64q1 0 7 2h1h1h2h1l1 1q12 4 26 10.5t37 19.5t45.5 34t36.5 46q16 26 35 105q21 85 34 99q3 3 12.5 3t24.5 -4q41 -17 48 -70q5 -46 -4 -98.5t-16 -72t-12 -30.5q-7 -16 2 -31q9 -14 27 -14h235q8 0 20 -10.5
t12 -22.5q0 -33 -26.5 -202.5t-36.5 -191.5z" />
    <glyph glyph-name="uniE645" unicode="&#xe645;" 
d="M888 598q-10 9 -23 8.5t-22 -10.5l-427 -454l-233 230q-10 9 -23 9t-22.5 -9.5t-9.5 -23t10 -22.5l256 -253h1q1 -1 7 -4q0 -1 1 -1.5t2 -1.5q6 -2 12 -2t12 3q1 0 2 1t2 1q5 3 7 5v0l449 479q9 9 9 22.5t-10 22.5z" />
    <glyph glyph-name="uniE646" unicode="&#xe646;" 
d="M557 383l266 264q9 9 9 22t-9.5 22.5t-22.5 9.5t-23 -9l-265 -264l-263 264q-9 9 -22.5 9t-23 -9t-9.5 -22.5t10 -22.5l263 -264l-265 -264q-10 -9 -10 -22.5t9.5 -22.5t22.5 -9t23 9l265 264l265 -267q10 -9 23 -9t22.5 9.5t9.5 22.5t-9 23z" />
    <glyph glyph-name="uniE64B" unicode="&#xe64b;" 
d="M957 491.5q-6 18.5 -25 21.5l-271 42l-120 259q-9 18 -29 18q-21 0 -29 -18l-122 -258l-271 -41q-19 -3 -25.5 -21.5t7.5 -32.5l196 -202l-47 -285q-3 -20 13.5 -31.5t33.5 -1.5l242 133l242 -134q7 -4 15 -4h1q13 0 22.5 9.5t9.5 22.5q0 6 -2 11l-45 279l197 201
q13 14 7 32.5z" />
    <glyph glyph-name="uniE64C" unicode="&#xe64c;" 
d="M767 -64q-8 0 -15 4l-242 134l-242 -133q-17 -10 -33.5 1.5t-13.5 31.5l47 285l-196 202q-14 14 -8 32.5t25 21.5l156 26q13 3 23.5 -5t13 -21t-5.5 -23.5t-21 -13.5l-95 -16l166 -170q11 -12 8 -28l-39 -235l200 110q15 8 31 -1l199 -110l-38 236q-3 16 9 27l164 169
l-225 34q-17 3 -24 18l-100 213l-100 -212q-5 -12 -17.5 -16.5t-24.5 1t-16.5 18t0.5 24.5l130 274q8 18 29 18q20 0 29 -18l120 -259l271 -42q19 -3 25 -21.5t-7 -32.5l-197 -201l46 -285q3 -20 -14 -31q-8 -6 -18 -6z" />
    <glyph glyph-name="uniE651" unicode="&#xe651;" 
d="M512 288q-79 0 -135.5 56.5t-56.5 135.5t56.5 135.5t135.5 56.5t135.5 -56.5t56.5 -135.5t-56.5 -135.5t-135.5 -56.5zM512 608q-53 0 -90.5 -37.5t-37.5 -90.5t37.5 -90.5t90.5 -37.5t90.5 37.5t37.5 90.5t-37.5 90.5t-90.5 37.5zM512 -64q-13 0 -22 9q-10 9 -10 22.5
t9 22.5q39 41 86 97.5t100.5 129.5t89 144.5t35.5 118.5q0 119 -84.5 203.5t-203.5 84.5t-203.5 -84.5t-84.5 -203.5q0 -57 52.5 -151.5t151.5 -215.5q9 -11 7.5 -24t-12 -21.5t-23.5 -7t-21 11.5q-219 268 -219 408q0 146 103 249t249 103t249 -103t103 -249
q0 -53 -34 -127.5t-76.5 -136.5t-98 -130.5t-80 -95.5t-40.5 -44q-9 -10 -23 -10z" />
    <glyph glyph-name="uniE657" unicode="&#xe657;" 
d="M512 -64q-185 0 -316.5 131.5t-131.5 316.5t131.5 316.5t316.5 131.5t316.5 -131.5t131.5 -316.5t-131.5 -316.5t-316.5 -131.5zM512 768q-104 0 -192.5 -51.5t-140 -140t-51.5 -192.5t51.5 -192.5t140 -140t192.5 -51.5t192.5 51.5t140 140t51.5 192.5t-51.5 192.5
t-140 140t-192.5 51.5zM727 502.5q-9 9.5 -22.5 9.5t-22.5 -9l-234 -236l-103 106q-9 9 -22.5 9.5t-23 -9t-9.5 -22.5t9 -23l126 -129h1v-1q1 -1 7 -4q0 -1 1 -1.5t2 -1.5q6 -2 12 -2t12 2q1 1 2 1.5t2 1.5q5 3 7 4v1l256 259q10 9 9.5 22t-9.5 22.5z" />
    <glyph glyph-name="uniE65C" unicode="&#xe65c;" 
d="M954 -12l-153 163q96 116 96 265q0 113 -56 209t-151.5 151.5t-208.5 55.5t-209 -55.5t-151.5 -151.5t-55.5 -209t55.5 -208.5t151.5 -151.5t209 -56q90 0 172 37q12 6 16.5 18.5t-1 24.5t-18 16.5t-24.5 -0.5q-69 -32 -145 -32q-96 0 -177 47.5t-128 128.5t-47 176.5
t47 176.5t128 128t176.5 47t176.5 -47t128.5 -128t47.5 -177q0 -141 -98 -244q-9 -9 -9 -22.5t10 -22.5l1 -1t1.5 -1t1.5 -1.5t1 -2.5l166 -177q9 -10 23 -10q13 0 22 9q10 9 10.5 22t-8.5 23z" />
    <glyph glyph-name="uniE65F" unicode="&#xe65f;" 
d="M512 832q-185 0 -316.5 -131.5t-131.5 -316.5t131.5 -316.5t316.5 -131.5t316.5 131.5t131.5 316.5t-131.5 316.5t-316.5 131.5zM512 0q-104 0 -192.5 51.5t-140 140t-51.5 192.5t51.5 192.5t140 140t192.5 51.5t192.5 -51.5t140 -140t51.5 -192.5t-51.5 -192.5
t-140 -140t-192.5 -51.5zM672 384h-160v224q0 13 -9.5 22.5t-22.5 9.5t-22.5 -9.5t-9.5 -22.5v-256q0 -13 9.5 -22.5t22.5 -9.5h192q13 0 22.5 9.5t9.5 22.5t-9.5 22.5t-22.5 9.5z" />
    <glyph glyph-name="uniE661" unicode="&#xe661;" 
d="M890.5 565q-9.5 9 -23 9t-22.5 -9l-328 -331l-332 329q-10 10 -23 10t-22.5 -9.5t-9.5 -23t10 -22.5l353 -350h1l1 -1v-1q10 -9 23 -9t22 9l350 354q10 9 10 22.5t-9.5 22.5z" />
    <glyph glyph-name="uniE663" unicode="&#xe663;" 
d="M849 -33h-674q-71 0 -99.5 49t5.5 111l340 609q35 63 90.5 63t90.5 -63l341 -609q34 -63 5.5 -111.5t-99.5 -48.5zM512 735q-18 0 -35 -30l-340 -610q-17 -30 -7 -47t45 -17h674q35 0 45 17t-7 47l-341 610q-16 30 -34 30zM512 256q-13 0 -22.5 9.5t-9.5 22.5v288
q0 13 9.5 22.5t22.5 9.5t22.5 -9.5t9.5 -22.5v-288q0 -13 -9.5 -22.5t-22.5 -9.5zM512 144zM464 144q0 20 14 34t34 14t34 -14t14 -34t-14 -34t-34 -14t-34 14t-14 34z" />
    <glyph glyph-name="uniE665" unicode="&#xe665;" 
d="M512 160q-79 0 -135.5 56.5t-56.5 135.5t56.5 135.5t135.5 56.5t135.5 -56.5t56.5 -135.5t-56.5 -135.5t-135.5 -56.5zM512 480q-53 0 -90.5 -37.5t-37.5 -90.5t37.5 -90.5t90.5 -37.5t90.5 37.5t37.5 90.5t-37.5 90.5t-90.5 37.5zM864 0h-704q-40 0 -68 28t-28 68v512
q0 40 28 68t68 28h96q13 0 22.5 -9.5t9.5 -22.5t-9.5 -22.5t-22.5 -9.5h-96q-13 0 -22.5 -9.5t-9.5 -22.5v-512q0 -13 9.5 -22.5t22.5 -9.5h704q13 0 22.5 9.5t9.5 22.5v512q0 13 -9.5 22.5t-22.5 9.5h-352q-13 0 -22.5 9.5t-9.5 22.5t9.5 22.5t22.5 9.5h352q40 0 68 -28
t28 -68v-512q0 -40 -28 -68t-68 -28zM816 560zM768 560q0 20 14 34t34 14t34 -14t14 -34t-14 -34t-34 -14t-34 14t-14 34zM480 768q0 -13 -9.5 -22.5t-22.5 -9.5h-128q-13 0 -22.5 9.5t-9.5 22.5t9.5 22.5t22.5 9.5h128q13 0 22.5 -9.5t9.5 -22.5z" />
    <glyph glyph-name="uniE667" unicode="&#xe667;" 
d="M512 -32q-13 0 -23 9l-96 96q-9 10 -9 23t9.5 22.5t22.5 9.5t23 -9l73 -74l73 74q10 9 23 9h224q13 0 22.5 9.5t9.5 22.5v512q0 13 -9.5 22.5t-22.5 9.5h-640q-13 0 -22.5 -9.5t-9.5 -22.5v-512q0 -13 9.5 -22.5t22.5 -9.5h96q13 0 22.5 -9.5t9.5 -22.5t-9.5 -22.5
t-22.5 -9.5h-96q-40 0 -68 28t-28 68v512q0 40 28 68t68 28h640q40 0 68 -28t28 -68v-512q0 -40 -28 -68t-68 -28h-211l-86 -87q-10 -9 -23 -9zM336 384q-20 0 -34 14t-14 34t14 34t34 14t34 -14t14 -34t-14 -34t-34 -14zM528 384q-20 0 -34 14t-14 34t14 34t34 14t34 -14
t14 -34t-14 -34t-34 -14zM720 384q-20 0 -34 14t-14 34t14 34t34 14t34 -14t14 -34t-14 -34t-34 -14z" />
    <glyph glyph-name="uniE668" unicode="&#xe668;" 
d="M736 768q-102 0 -176 -70q-6 -5 -48 -48l-47 47q-74 71 -177 71q-106 0 -181 -75t-75 -181q0 -100 76 -182l317 -321q42 -41 87 -41t87 42l316 320l3 2q25 31 37.5 49.5t24.5 54t12 76.5q0 106 -75 181t-181 75z" />
    <glyph glyph-name="uniE669" unicode="&#xe669;" 
d="M512 -32q-45 0 -87 41l-319 323q-25 31 -37.5 49.5t-24.5 54t-12 76.5q0 106 75 181t181 75q81 0 147 -47q11 -7 13.5 -20t-5.5 -24t-21 -13.5t-24 5.5q-49 35 -110 35q-79 0 -135.5 -56.5t-56.5 -135.5q0 -43 13 -70t46 -69l316 -319q22 -22 41 -22q18 0 41 23l317 320
q58 62 58 137q0 79 -56.5 135.5t-135.5 56.5q-75 0 -130 -50l-134 -134q-9 -10 -22 -10t-22.5 9.5t-9.5 22.5t9 23l135 135q75 68 174 68q106 0 181 -75t75 -181q0 -100 -76 -182l-317 -320q-42 -42 -87 -42z" />
    <glyph glyph-name="uniE66B" unicode="&#xe66b;" 
d="M526 -28q-31 0 -69 37l-182 183h-83q-40 0 -68 28t-28 68v192q0 40 28 68t68 28h83l182 183q37 37 69 37q20 0 35 -15t15 -45v-704q0 -31 -15 -45.5t-35 -14.5zM192 512q-13 0 -22.5 -9.5t-9.5 -22.5v-192q0 -13 9.5 -22.5t22.5 -9.5h96q13 0 23 -9l192 -192l9 -9v676
q-5 -4 -9 -9l-192 -192q-10 -9 -23 -9h-96zM688 166q-11 0 -19 6q-11 7 -13 20.5t6 23.5l12 18q22 29 32 45t20 45t10 60q0 33 -9 60.5t-18.5 42.5t-29.5 42q-10 13 -17 23q-8 10 -6 23.5t13 21t24 5.5t21 -13q4 -7 16 -21q23 -31 34.5 -49.5t23.5 -55.5t12 -79
q0 -41 -13 -79t-25 -57.5t-36 -51.5l-12 -17q-10 -13 -26 -13zM796 57q-12 0 -21 8q-10 9 -10.5 22t7.5 23q58 66 91 130t33 144t-33 144t-91 130q-8 10 -7.5 23t10.5 22t23.5 8t22.5 -11q63 -73 101 -147.5t38 -168.5t-38 -168.5t-101 -147.5q-10 -11 -25 -11z" />
    <glyph glyph-name="uniE66C" unicode="&#xe66c;" 
d="M64 288q0 -145 83.5 -261t216.5 -162q5 -1 8.5 -1t5.5 1t3.5 2.5t2 4.5t0.5 4v6v5v78q-38 -5 -66.5 1t-43 19.5t-22.5 25.5t-13 26.5t-5 16.5q-8 13 -23.5 24t-23.5 17.5t-3 12.5q45 23 100 -58q30 -44 104 -25q8 35 34 60q-101 18 -150 75t-49 138q0 77 48 132
q-19 57 5 121q26 2 57.5 -10t44.5 -20.5t22 -15.5q51 14 112 14q63 0 114 -14q65 49 122 44q23 -62 5 -118q49 -56 49 -133q0 -81 -49.5 -138t-150.5 -75q38 -37 38 -91v-113v-2q1 -5 1.5 -8t4 -5.5t9.5 -2.5q135 46 220 162.5t85 262.5q0 122 -60 225t-163 163t-225 60
t-225 -60t-163 -163t-60 -225z" />
    <glyph glyph-name="uniE66F" unicode="&#xe66f;" 
d="M669 444q14 0 31 -2q-21 96 -112 159t-207 63q-86 0 -158.5 -35.5t-115 -97.5t-42.5 -136q0 -124 126 -213l-31 -95l110 56q80 -16 111 -16q13 0 29 1q-9 33 -9 66q0 104 78 177t190 73zM499 530q18 0 29 -11t11 -28.5t-11 -28.5t-29 -11t-32.5 11t-14.5 28.5t14.5 28.5
t32.5 11zM278 451q-18 0 -32.5 11t-14.5 28.5t14.5 28.5t32.5 11t29 -11t11 -28.5t-11 -28.5t-29 -11zM957 198q0 94 -80 161.5t-188 67.5q-112 0 -190.5 -67t-78.5 -162t78.5 -162t190.5 -67q32 0 95 16l86 -48l-23 79q110 83 110 182zM602 238q-12 0 -22 9.5t-10 21.5
t10 22t22 10q17 0 28.5 -9.5t11.5 -22t-11.5 -22t-28.5 -9.5zM776 238q-12 0 -22 9.5t-10 21.5t10 22t22 10q17 0 28 -10t11 -22t-11 -21.5t-28 -9.5z" />
    <glyph glyph-name="uniE679" unicode="&#xe679;" 
d="M672 -16q-20 0 -34 14l-352 352q-14 14 -14 34t14 34l352 352q14 14 34 14t34 -14t14 -34t-14 -34l-318 -318l318 -318q14 -14 14 -34t-14 -34t-34 -14z" />
    <glyph glyph-name="uniE684" unicode="&#xe684;" 
d="M224 288q-40 0 -68 28t-28 68t28 68t68 28t68 -28t28 -68t-28 -68t-68 -28zM512 288q-40 0 -68 28t-28 68t28 68t68 28t68 -28t28 -68t-28 -68t-68 -28zM800 288q-40 0 -68 28t-28 68t28 68t68 28t68 -28t28 -68t-28 -68t-68 -28z" />
    <glyph glyph-name="uniE686" unicode="&#xe686;" 
d="M512 832q-185 0 -316.5 -131.5t-131.5 -316.5t131.5 -316.5t316.5 -131.5t316.5 131.5t131.5 316.5t-131.5 316.5t-316.5 131.5zM289 72q7 0 10 1q103 37 158 41q12 1 20.5 10t8.5 22v59q0 15 -11 24q-37 32 -54.5 94.5t-17.5 128.5q0 136 125 136q118 0 118 -136
q0 -66 -26 -132.5t-64 -96.5q-12 -10 -12 -25v-55q0 -13 8.5 -22t20.5 -10q50 -6 148 -45h3l2 -1q-97 -65 -214 -65q-122 0 -223 72zM765 95q0 23 -20 31q-80 31 -137 43v14q48 45 75 121.5t27 147.5q0 96 -47.5 148t-134.5 52q-89 0 -139 -53t-50 -147q0 -23 2.5 -49.5
t10 -66.5t25.5 -79t45 -66v-17q-61 -11 -145 -41q-11 -3 -16.5 -13.5t-3.5 -21.5q-60 53 -94.5 127.5t-34.5 158.5q0 159 112.5 271.5t271.5 112.5t271.5 -112.5t112.5 -271.5q0 -85 -35 -160t-96 -129z" />
    <glyph glyph-name="uniE68C" unicode="&#xe68c;" 
d="M943 551q-17 -36 -79 -67v43q37 21 46 41q28 58 0 101q-25 40 -82 40q-24 0 -47.5 -23t-42 -61t-32.5 -78t-24 -83l-15 -11l-23 35q11 44 25.5 83.5t36.5 82.5t53 68.5t66 25.5q79 0 116 -60.5t2 -136.5zM647 394q14 0 24 8t14 20q21 19 39 30q2 -11 2 -19q0 -32 -23 -55
t-55.5 -23t-55.5 23t-23 55q0 25 13.5 44.5t34.5 28.5l-9 -53h-4q-3 -4 4 -20v0q0 -16 11.5 -27.5t27.5 -11.5zM530 571q-9 0 -21.5 -5t-18.5 -11l-386 -385l278 -279l387 386q5 6 10.5 18.5t5.5 21.5v88v72v94h-33q10 23 19 40h14q17 0 28.5 -11.5t11.5 -28.5l-1 -59h1
v-157h-1v-38q0 -16 -8 -36t-20 -31l-386 -386q-11 -12 -27.5 -12t-27.5 12l-279 278q-11 11 -11 27.5t11 27.5l387 386q11 11 30.5 19.5t36.5 8.5h116q-7 -19 -12 -40h-104zM540 -109l307 308q6 6 11.5 18.5t5.5 20.5v190q22 12 39 26v-216q0 -16 -8.5 -36t-19.5 -31
l-307 -307q-12 -12 -28.5 -12t-27.5 12l-24 23l28 28z" />
    <glyph glyph-name="uniE691" unicode="&#xe691;" 
d="M512 112zM464 112q0 20 14 34t34 14t34 -14t14 -34t-14 -34t-34 -14t-34 14t-14 34zM512 -64q-185 0 -316.5 131.5t-131.5 316.5t131.5 316.5t316.5 131.5t316.5 -131.5t131.5 -316.5t-131.5 -316.5t-316.5 -131.5zM512 768q-104 0 -192.5 -51.5t-140 -140t-51.5 -192.5
t51.5 -192.5t140 -140t192.5 -51.5t192.5 51.5t140 140t51.5 192.5t-51.5 192.5t-140 140t-192.5 51.5zM512 222q-13 0 -22.5 9.5t-9.5 22.5v54q0 25 13 50t25.5 39.5t36.5 38.5q18 18 26.5 27t17.5 23t9 24q0 40 -28 68.5t-68 28.5t-68 -27.5t-28 -67.5q0 -13 -9.5 -22.5
t-22.5 -9.5t-22.5 9.5t-9.5 22.5q0 66 47 112.5t113 46.5t113 -47t47 -114q0 -22 -12 -45.5t-24 -37t-35 -36.5q-19 -19 -28.5 -29t-19 -26t-9.5 -28v-54q0 -13 -9.5 -22.5t-22.5 -9.5z" />
    <glyph glyph-name="uniE69F" unicode="&#xe69f;" 
d="M512 -64q-185 0 -316.5 131.5t-131.5 316.5t131.5 316.5t316.5 131.5t316.5 -131.5t131.5 -316.5t-131.5 -316.5t-316.5 -131.5zM512 768q-159 0 -271.5 -112.5t-112.5 -271.5t112.5 -271.5t271.5 -112.5t271.5 112.5t112.5 271.5t-112.5 271.5t-271.5 112.5z
M694.5 373.5q-9.5 9.5 -23 9.5t-22.5 -9l-105 -104v307q0 13 -9.5 22.5t-22.5 9.5t-22.5 -9.5t-9.5 -22.5v-309l-105 107q-10 9 -23 9.5t-22.5 -9t-9.5 -23t9 -22.5l160 -161q9 -10 23 -10q13 0 22 9v1l160 159q10 10 10 23t-9.5 22.5z" />
    <glyph glyph-name="uniE6A0" unicode="&#xe6a0;" 
d="M1 300.5q0 42.5 30 72t72.5 29.5t72 -29.5t29.5 -72t-29.5 -72.5t-72 -30t-72.5 30t-30 72.5zM410 300.5q0 42.5 30 72t72 29.5t72 -29.5t30 -72t-30 -72.5t-72 -30t-72 30t-30 72.5zM819 300.5q0 42.5 29.5 72t72 29.5t72.5 -29.5t30 -72t-30 -72.5t-72.5 -30t-72 30
t-29.5 72.5z" />
    <glyph glyph-name="uniE6A3" unicode="&#xe6a3;" 
d="M761 364l1 1t1 2q7 13 4.5 28.5t-14.5 26.5l-353 334q-15 14 -34.5 13.5t-33.5 -15t-13 -34.5t15 -34l317 -299l-316 -305q-14 -13 -14.5 -33t13.5 -35q14 -14 35 -14q19 0 33 13l350 338v1q1 1 1.5 1t0.5 1h1q1 2 6 10z" />
    <glyph glyph-name="uniE6B4" unicode="&#xe6b4;" 
d="M608 128q-13 0 -22.5 9.5t-9.5 22.5v352q0 13 9.5 22.5t22.5 9.5t22.5 -9.5t9.5 -22.5v-352q0 -13 -9.5 -22.5t-22.5 -9.5zM416 128q-13 0 -22.5 9.5t-9.5 22.5v352q0 13 9.5 22.5t22.5 9.5t22.5 -9.5t9.5 -22.5v-352q0 -13 -9.5 -22.5t-22.5 -9.5zM928 672h-160v64
q0 40 -28 68t-67 28h-321q-40 0 -68 -28t-28 -68v-64h-160q-13 0 -22.5 -9.5t-9.5 -22.5t9.5 -22.5t22.5 -9.5h832q13 0 22.5 9.5t9.5 22.5t-9.5 22.5t-22.5 9.5zM320 736q0 13 9.5 22.5t22.5 9.5h321q13 0 22 -9.5t9 -22.5v-64h-384v64zM736 -64h-448q-40 0 -68 28t-28 68
v480q0 14 9.5 23t22.5 9t22.5 -9t9.5 -23v-480q0 -13 9.5 -22.5t22.5 -9.5h448q13 0 22.5 9.5t9.5 22.5v479q0 13 9.5 22.5t22.5 9.5t22.5 -9.5t9.5 -22.5v-479q0 -40 -28 -68t-68 -28z" />
    <glyph glyph-name="uniE6BC" unicode="&#xe6bc;" 
d="M640 480h-256q-13 0 -22.5 9.5t-9.5 22.5t9.5 22.5t22.5 9.5h256q13 0 22.5 -9.5t9.5 -22.5t-9.5 -22.5t-22.5 -9.5zM579 352h-195q-13 0 -22.5 9.5t-9.5 22.5t9.5 22.5t22.5 9.5h195q14 0 23 -9.5t9 -22.5t-9 -22.5t-23 -9.5zM962 448q0 104 -60 192.5t-163 140
t-224.5 51.5t-225 -51.5t-163.5 -140t-60 -192.5q0 -87 45.5 -166t127.5 -135q11 -7 24 -4.5t20.5 13.5t5 24t-13.5 20q-69 47 -107 112t-38 136q0 87 51.5 160.5t140 116.5t192.5 43t192.5 -43t140 -116.5t51.5 -160.5t-51.5 -160.5t-140 -116.5t-192.5 -43h-3l-2 -1
q-12 2 -22 -3.5t-14 -16.5q-9 -26 -94 -74q17 58 3 79q-10 16 -30 16q-13 0 -22.5 -9.5t-9.5 -22.5q0 -9 5 -16q-6 -33 -33 -100q-9 -20 7 -35q9 -9 22 -9q7 0 13 3q144 64 188 125q120 2 221 53.5t160 139.5t59 191z" />
    <glyph glyph-name="uniE6BF" unicode="&#xe6bf;" 
d="M546 256h-1q-22 0 -45 26l-37 43q-9 10 -8.5 24t10.5 23t23 8.5t22 -10.5l37 -40l174 179l-50 55l-72 -75q-10 -9 -23 -9t-22.5 9t-9.5 22.5t9 22.5l74 75q18 18 45 18t45 -19l50 -53q18 -19 17.5 -45.5t-18.5 -44.5l-176 -185q-24 -24 -44 -24zM352.5 141
q-26.5 0 -45.5 19l-51 49q-19 18 -19 45t19 45l179 187q25 26 45 26t45 -25l42 -45q9 -9 9 -23.5t-9.5 -23.5t-22.5 -9.5t-23 8.5l-41 41l-179 -181l51 -48l75 73q9 9 22 9t22.5 -9.5t9.5 -22.5t-9 -23l-75 -73q-18 -19 -44.5 -19zM512 -64q-185 0 -316.5 131.5
t-131.5 316.5t131.5 316.5t316.5 131.5t316.5 -131.5t131.5 -316.5t-131.5 -316.5t-316.5 -131.5zM512 768q-159 0 -271.5 -112.5t-112.5 -271.5t112.5 -271.5t271.5 -112.5t271.5 112.5t112.5 271.5t-112.5 271.5t-271.5 112.5z" />
    <glyph glyph-name="uniE6C4" unicode="&#xe6c4;" 
d="M729 399q-1 0 -4.5 1t-4.5 1.5t-4 1.5t-4 2t-3 2t-2.5 2.5t-1.5 3.5t-0.5 4t1.5 5q11 27 11.5 52.5t-10.5 42.5q-39 55 -190 -7v-1q-23 -9 -22 5q0 3 1 5q22 71 -10 103q-36 36 -121 3t-169 -115q-63 -63 -97.5 -126.5t-34.5 -119.5q0 -69 55 -123.5t139 -81.5t177 -27
q87 0 163 23t126 60t78.5 80.5t28.5 84.5q0 46 -29.5 76t-72.5 43zM436 83.5q-110 -10.5 -193 32t-90 114t66 129.5t182.5 68.5t192.5 -32t90 -114t-65.5 -129.5t-182.5 -68.5zM897.5 661q-44.5 46 -106 64t-124.5 6q-14 -3 -22 -14.5t-5 -24.5t15.5 -20.5t26.5 -4.5
q44 8 88 -4.5t75.5 -45.5t41 -76t-4.5 -82q-5 -13 1.5 -25t20.5 -16.5t27 2t17 19.5q20 55 7 115.5t-57.5 106.5zM808 579q-21 23 -51 32t-61 3q-12 -3 -18.5 -13t-4 -21.5t13 -18t22.5 -4.5q32 7 54.5 -17t11.5 -54q-3 -12 2.5 -22.5t17 -14t23 2t14.5 16.5q10 28 3.5 58
t-27.5 53zM485 392q-54 14 -107.5 -9t-76.5 -70q-24 -47 -3.5 -93t74.5 -63q57 -18 114.5 6t80.5 75q22 50 -2 95t-80 59zM430 233.5q-11 -16.5 -31.5 -23t-37.5 1.5q-18 7 -22.5 24t6.5 33.5t31 23t37 -1.5q18 -7 23 -24t-6 -33.5zM478 292.5q-4 -6.5 -11.5 -9t-14.5 0
t-8.5 9t1.5 12.5q10 15 26 9q7 -2 9 -8.5t-2 -13z" />
    <glyph glyph-name="uniE6DE" unicode="&#xe6de;" 
d="M887 279l-353 350l-1 1h-1v1q-10 9 -23 9t-22 -10l-350 -353q-10 -9 -10 -22.5t9.5 -22.5t23 -9t22.5 9l328 331l332 -330q10 -9 23 -9t22.5 9.5t9.5 23t-10 22.5z" />
    <glyph glyph-name="uniE6E3" unicode="&#xe6e3;" 
d="M864 512h-189q12 28 19.5 83t0.5 107q-5 45 -30 77.5t-63 45.5q-29 10 -56.5 5.5t-43.5 -20.5q-12 -12 -22 -35t-15.5 -41t-13.5 -52q-17 -70 -28 -89q-20 -34 -57.5 -57.5t-51.5 -23.5h-90q-13 0 -22.5 -9.5t-9.5 -22.5v-448q0 -13 9.5 -22.5t22.5 -9.5h87q8 0 45 -16
t91.5 -32t104.5 -16h216q33 0 68.5 13t51 38.5t44 207.5t28.5 220q0 39 -31 68t-65 29zM96 512q-13 0 -22.5 -9.5t-9.5 -22.5v-448q0 -13 9.5 -22.5t22.5 -9.5t22.5 9.5t9.5 22.5v448q0 13 -9.5 22.5t-22.5 9.5z" />
    <glyph glyph-name="uniE6E5" unicode="&#xe6e5;" 
d="M512 -62q-91 0 -173.5 35.5t-142 95t-95 142t-35.5 173.5t35.5 173.5t95 142t142 95t173.5 35.5t173.5 -35.5t142 -95t95 -142t35.5 -173.5t-35.5 -173.5t-95 -142t-142 -95t-173.5 -35.5zM512 766q-104 0 -192 -51t-139 -139t-51 -192t51 -192t139 -139t192 -51t192 51
t139 139t51 192t-51 192t-139 139t-192 51zM512 592zM464 592q0 20 14 34t34 14t34 -14t14 -34t-14 -34t-34 -14t-34 14t-14 34zM512 128q-13 0 -22.5 9.5t-9.5 22.5v288q0 13 9.5 22.5t22.5 9.5t22.5 -9.5t9.5 -22.5v-288q0 -13 -9.5 -22.5t-22.5 -9.5z" />
    <glyph glyph-name="uniE6EB" unicode="&#xe6eb;" 
d="M544 -64q-6 0 -12 2q-20 8 -20 30v287q-67 -3 -132.5 -20.5t-108.5 -36.5t-82.5 -43.5t-52 -34.5t-18.5 -15q-18 -16 -38 -5t-15 34q2 14 7.5 36t28 78.5t52.5 104.5q69 109 168.5 166t222.5 57q13 0 22.5 -9.5t9.5 -22.5t-9.5 -22.5t-22.5 -9.5q-68 0 -128 -21
t-100.5 -52t-74.5 -74.5t-53 -80t-35 -75.5q182 111 391 111q13 0 22.5 -9.5t9.5 -22.5v-238l308 330l-308 335v-43q0 -13 -9.5 -22.5t-22.5 -9.5t-22.5 9.5t-9.5 22.5v125q0 21 20.5 29t35.5 -8l384 -416q8 -9 8 -21.5t-9 -21.5l-384 -413q-9 -10 -23 -10z" />
    <glyph glyph-name="uniE6F3" unicode="&#xe6f3;" 
d="M769 192q-54 0 -91 -38l-310 172q15 28 15 58q0 17 -6 36l305 189q37 -33 85 -33q53 0 90.5 37.5t37.5 90.5t-37.5 90.5t-90.5 37.5t-90.5 -37.5t-37.5 -90.5q0 -20 8 -41l-302 -188q-38 37 -90 37q-53 0 -90.5 -37.5t-37.5 -90.5t37.5 -90.5t90.5 -37.5q38 0 70 21
l321 -179q-5 -18 -5 -34q0 -53 37.5 -90.5t90.5 -37.5t90.5 37.5t37.5 90.5t-37.5 90.5t-90.5 37.5zM767.5 768q26.5 0 45 -19t18.5 -45.5t-18.5 -45t-45 -18.5t-45.5 18.5t-19 45t19 45.5t45.5 19zM191 384.5q0 26.5 19 45t45.5 18.5t45 -18.5t18.5 -45t-18.5 -45.5
t-45 -19t-45.5 19t-19 45.5zM768.5 0q-26.5 0 -45 19t-18.5 45.5t18.5 45t45 18.5t45.5 -18.5t19 -45t-19 -45.5t-45.5 -19z" />
    <glyph glyph-name="uniE708" unicode="&#xe708;" 
d="M576 736h-128q-13 0 -22.5 9.5t-9.5 22.5t9.5 22.5t22.5 9.5h128q13 0 22.5 -9.5t9.5 -22.5t-9.5 -22.5t-22.5 -9.5zM819 550l36 35q9 10 9 23t-9.5 22.5t-22.5 9.5t-23 -9l-33 -33q-52 50 -120.5 78t-143.5 28q-159 0 -271.5 -112.5t-112.5 -271.5t112.5 -271.5
t271.5 -112.5t271.5 112.5t112.5 271.5q0 127 -77 230zM544 2v30q0 13 -9.5 22.5t-22.5 9.5t-22.5 -9.5t-9.5 -22.5v-30q-113 11 -194 92t-92 194h30q13 0 22.5 9.5t9.5 22.5t-9.5 22.5t-22.5 9.5h-30q11 113 92 194t194 92v-30q0 -13 9.5 -22.5t22.5 -9.5t22.5 9.5
t9.5 22.5v30q113 -11 194 -92t92 -194h-30q-13 0 -22.5 -9.5t-9.5 -22.5t9.5 -22.5t22.5 -9.5h30q-11 -113 -92 -194t-194 -92zM652 473l-160 -128q-10 -8 -11.5 -21.5t6.5 -23.5q10 -12 25 -12q11 0 20 7l160 128q10 8 11.5 21.5t-6.5 23.5t-21.5 11.5t-23.5 -6.5z" />
    <glyph glyph-name="uniE70A" unicode="&#xe70a;" 
d="M890 146q-5 7 -13.5 19.5t-28.5 47t-36 68t-28.5 76.5t-12.5 77q0 118 -45.5 189t-117.5 98v15q0 40 -28 68t-68 28t-68 -28t-28 -68v-17q-19 -13 -12 -35q4 -12 16 -18.5t24 -2.5q27 9 57 9h22q86 0 135 -63t49 -175q0 -122 110 -294q-167 -76 -305 -76q-137 0 -305 77
q110 171 110 293q0 94 35 154q6 11 3 24t-14.5 19.5t-24.5 3t-20 -14.5q-43 -75 -43 -186q0 -34 -12.5 -77t-28.5 -76t-36 -67.5t-28.5 -47.5t-13.5 -19q-8 -12 -5 -26t16 -21t35.5 -18t82 -33t115.5 -34q16 -50 52.5 -80.5t81.5 -30.5t81 30.5t53 80.5q56 12 115.5 34
t82 32.5t35.5 17.5t16 21t-5 26zM501 736q-2 0 -21 -2v2q0 13 9.5 22.5t22.5 9.5t22.5 -9.5t9.5 -22.5v-1q-11 1 -21 1h-22zM512 -32q-34 0 -58 35q31 -3 58 -3t58 3q-24 -35 -58 -35z" />
    <glyph glyph-name="uniE71F" unicode="&#xe71f;" 
d="M512 -64q-185 0 -316.5 131.5t-131.5 316.5t131.5 316.5t316.5 131.5t316.5 -131.5t131.5 -316.5t-131.5 -316.5t-316.5 -131.5zM512 768q-159 0 -271.5 -112.5t-112.5 -271.5t112.5 -271.5t271.5 -112.5t271.5 112.5t112.5 271.5t-112.5 271.5t-271.5 112.5zM290 372
l1 -1q2 -6 6 -10v0l159 -159q10 -10 23 -10t22.5 9.5t9.5 22.5t-9 23l-104 103h305q14 0 23 9.5t9 23t-9 22.5t-23 9h-306l106 105q9 10 9 23t-9 22.5t-23 9.5q-13 0 -22 -9l-161 -159q-15 -15 -7 -34z" />
    <glyph glyph-name="uniE720" unicode="&#xe720;" 
d="M512 -64q-185 0 -316.5 131.5t-131.5 316.5t131.5 316.5t316.5 131.5t316.5 -131.5t131.5 -316.5t-131.5 -316.5t-316.5 -131.5zM512 768q-159 0 -271.5 -112.5t-112.5 -271.5t112.5 -271.5t271.5 -112.5t271.5 112.5t112.5 271.5t-112.5 271.5t-271.5 112.5zM733 395
q-3 6 -7 10v0l-159 160q-9 9 -22.5 9t-23 -9t-9.5 -22.5t10 -22.5l103 -104h-305q-13 0 -22.5 -9.5t-9.5 -22.5t9.5 -22.5t22.5 -9.5h307l-106 -105q-10 -9 -10 -22.5t9.5 -23t22.5 -9.5t23 10l160 158q15 15 7 35z" />
    <glyph glyph-name="uniE731" unicode="&#xe731;" 
d="M512 -32q-16 0 -26 13l-65 91q-156 28 -256.5 133.5t-100.5 242.5q0 159 131.5 271.5t316.5 112.5t316.5 -112.5t131.5 -271.5q0 -137 -100.5 -242.5t-256.5 -133.5l-65 -91q-10 -13 -26 -13zM512 768q-159 0 -271.5 -94t-112.5 -226q0 -116 89.5 -205t226.5 -110
q13 -2 21 -13l47 -65l47 65q7 11 21 13q137 21 226.5 110t89.5 205q0 132 -112.5 226t-271.5 94zM288.5 384q-26.5 0 -45.5 19t-19 45t19 45t45.5 19t45 -19t18.5 -45t-18.5 -45t-45 -19zM288 448v-32v32zM736.5 384q-26.5 0 -45.5 19t-19 45t19 45t45.5 19t45 -19t18.5 -45
t-18.5 -45t-45 -19zM736 448v-32v32zM512.5 384q-26.5 0 -45.5 19t-19 45t19 45t45.5 19t45 -19t18.5 -45t-18.5 -45t-45 -19zM512 448v-32v32z" />
    <glyph glyph-name="uniE739" unicode="&#xe739;" 
d="M961 640q0 40 -28.5 68t-67.5 28h-186h-1h-1q-6 -1 -10 -2l-1 -1h-1q-5 -3 -8 -6q-18 -17 -35 -88q-3 -12 -4 -14q-4 -17 -27 -17h-7h-8h-416q-40 0 -68 -28.5t-28 -69.5l32 -414q0 -40 28 -68t68 -28h640q40 0 68 28t28 66zM864 96q0 -13 -9.5 -22.5t-22.5 -9.5h-640
q-13 0 -22.5 10t-9.5 24l-32 414q0 13 9.5 22.5t22.5 9.5h416h8h7q35 0 58.5 17t30.5 48q2 4 4 15q8 34 13 48h168q13 0 22.5 -9.5t9.5 -22.5v-2v-1zM128 672h416q13 0 22.5 9.5t9.5 22.5t-9.5 22.5t-22.5 9.5h-416q-13 0 -22.5 -9.5t-9.5 -22.5t9.5 -22.5t22.5 -9.5z" />
    <glyph glyph-name="uniE73D" unicode="&#xe73d;" 
d="M992 384q0 9 -1 11q-1 6 -2 11q-1 1 -1 2q-1 3 -2 4q-66 145 -197 234.5t-277 89.5t-277 -89t-197 -234q-1 -3 -2 -5q0 -2 -1 -2q0 -2 -1 -8l-2 -11v-6q1 -7 1 -8q0 -3 1 -7l2 -6q1 -3 2 -4q66 -145 197 -234.5t277 -89.5t277 89t196 233q2 3 3 7q0 1 1 1q0 2 0.5 4
t1 3.5t-0.5 1.5q2 8 2 13zM927 382v-1v-1q-59 -128 -173.5 -206t-241.5 -78t-241 78t-174 206v2h-1v1v1v1q0 1 1 2v1q59 128 173.5 206t241.5 78t241.5 -78t173.5 -206v-1q1 -3 1 -4zM512 544q-66 0 -113 -47t-47 -113t47 -113t113 -47t113 47t47 113t-47 113t-113 47z
M512 288q-40 0 -68 28t-28 68t28 68t68 28t68 -28t28 -68t-28 -68t-68 -28z" />
    <glyph glyph-name="uniE741" unicode="&#xe741;" 
d="M637 462q7 11 3.5 24t-15 19.5t-24 3.5t-19.5 -15q-19 -33 -67.5 -56t-97 -23t-97 23.5t-67.5 56.5q-7 11 -19.5 14.5t-24 -3t-15 -19.5t3.5 -24q29 -52 93.5 -82t126.5 -30q60 0 124.5 30t94.5 81zM704 192q40 0 68 28t28 68v416q0 40 -28 68t-68 28h-576q-40 0 -68 -28
t-28 -68v-416q0 -40 28 -68t68 -28v-160q0 -22 20 -30q6 -2 12 -2q14 0 23 10l171 182h350zM193 220v2v2q0 13 -9 22.5t-23 9.5h-33q-13 0 -22.5 9.5t-9.5 22.5v416q0 13 9.5 22.5t22.5 9.5h576q13 0 22.5 -9.5t9.5 -22.5v-416q0 -13 -9.5 -22.5t-22.5 -9.5h-364h-1
q-3 0 -9 -2h-1q-1 0 -2 -1q-2 -1 -7 -5h-1l-2 -2h-1l-124 -133zM896 608q-13 0 -22.5 -9.5t-9.5 -23t9.5 -22.5t23 -9t22.5 -9.5t9 -22.5v-352q0 -14 -9 -23t-23 -9h-32q-13 0 -22.5 -9.5t-9.5 -22.5v-1v0v-50l-73 73q-9 10 -23 10h-160q-13 0 -22.5 -9.5t-9.5 -22.5
t9.5 -22.5t22.5 -9.5h147l118 -119q9 -10 23 -10q6 0 12 3q19 8 20 29v97q40 0 68 28t28 68v352q0 39 -28 67.5t-68 28.5z" />
    <glyph glyph-name="uniE74A" unicode="&#xe74a;" 
d="M257 319h512q14 0 23 9.5t9 22.5t-9 22.5t-23 9.5h-512q-13 0 -22.5 -9.5t-9.5 -22.5t9.5 -22.5t22.5 -9.5zM257 127h512q14 0 23 9.5t9 22.5t-9 22.5t-23 9.5h-512q-13 0 -22.5 -9.5t-9.5 -22.5t9.5 -22.5t22.5 -9.5zM448 704h160q13 0 22.5 9.5t9.5 22.5t-9.5 22.5
t-22.5 9.5h-160q-13 0 -22.5 -9.5t-9.5 -22.5t9.5 -22.5t22.5 -9.5zM847 768h-47q-13 0 -22.5 -9.5t-9.5 -22.5t9.5 -22.5t22.5 -9.5h47q5 0 11 -9t6 -23v-96h-704v96q0 13 9 22.5t22 9.5h65q13 0 22.5 9.5t9.5 22.5t-9.5 22.5t-22.5 9.5h-65q-39 0 -67 -28t-28 -68v-640
q0 -40 28 -68t68 -28h640q40 0 68 28t28 68v640q0 40 -24 68t-57 28zM864 32q0 -13 -9.5 -22.5t-22.5 -9.5h-640q-13 0 -22.5 9.5t-9.5 22.5v480h704v-480zM704 672q13 0 22.5 9.5t9.5 22.5v96q0 13 -9.5 22.5t-22.5 9.5t-22.5 -9.5t-9.5 -22.5v-96q0 -13 9.5 -22.5
t22.5 -9.5zM352 672q13 0 22.5 9.5t9.5 22.5v96q0 13 -9.5 22.5t-22.5 9.5t-22.5 -9.5t-9.5 -22.5v-96q0 -13 9.5 -22.5t22.5 -9.5z" />
    <glyph glyph-name="uniE758" unicode="&#xe758;" 
d="M447 -48q-5 0 -10 2q-104 35 -170.5 120t-73.5 191q-1 3 -1 7q0 44 -6 83t-13 62t-16 41.5t-13 23.5t-6 8q-15 16 -6 35q9 20 31 19q97 -6 144 -38q29 -18 54 -68q13 39 20.5 91t9 94t0 86.5t-3 61.5t-2.5 25q-2 21 16 31.5t35 -1.5q10 -7 24 -18t50 -41t67.5 -60
t67.5 -71.5t59 -78.5q7 52 1 112q-2 22 17.5 31.5t36.5 -4.5q7 -7 17.5 -18.5t35 -49t42.5 -80.5t31.5 -113.5t11.5 -147.5q0 -94 -48 -176t-130 -129q-21 -12 -38 4.5t-6 37.5q16 31 16 63q1 48 -44 99.5t-108 95.5q13 -117 -18 -164q-8 -12 -22 -14t-25 7q-32 26 -66 46
q-12 6 -15.5 18.5t3 24.5t19 15.5t24.5 -3.5q17 -9 38 -24q7 63 -12 152q-5 20 11.5 32.5t34.5 2.5q16 -9 36 -21.5t60 -42.5t70 -61t54 -75t24 -85q78 84 78 198q4 162 -63 285q-8 -93 -47 -120q-13 -9 -28 -3.5t-20 20.5q-34 106 -221 260q11 -271 -69 -388
q-11 -17 -31 -14t-26 22q-9 30 -25.5 62t-31.5 41q-15 10 -49 18q31 -74 34 -179v-4q0 -91 56 -167.5t145 -105.5q13 -4 19 -16t1 -25q-7 -22 -30 -22z" />
    <glyph glyph-name="uniE75C" unicode="&#xe75c;" 
d="M512 -64q-185 0 -316.5 131.5t-131.5 316.5t131.5 316.5t316.5 131.5t316.5 -131.5t131.5 -316.5t-131.5 -316.5t-316.5 -131.5zM512 768q-159 0 -271.5 -112.5t-112.5 -271.5t112.5 -271.5t271.5 -112.5t271.5 112.5t112.5 271.5t-112.5 271.5t-271.5 112.5z
M695.5 440.5q-9.5 9.5 -22.5 9t-23 -9.5l-136 -139l-136 137q-9 9 -22.5 9.5t-23 -9t-9.5 -23t10 -22.5l158 -160q9 -10 23 -10q6 0 12 3h1l2 2q5 3 7 5h1l159 162q9 10 9 23t-9.5 22.5z" />
    <glyph glyph-name="uniE75D" unicode="&#xe75d;" 
d="M823 501l-287 289q-5 5 -11 7q-6 3 -13 3q-17 0 -26 -15l-255 -254q-9 -9 -9 -22.5t9 -23t22.5 -9.5t22.5 10l204 203v-561q0 -13 9.5 -22.5t22.5 -9.5t22.5 9.5t9.5 22.5v563l234 -235q9 -10 22.5 -10t23 9.5t9.5 22.5t-10 23zM896 192q-13 0 -22.5 -9.5t-9.5 -22.5
v-128h-704v128q0 13 -9.5 22.5t-22.5 9.5t-22.5 -9.5t-9.5 -22.5v-160q0 -13 9.5 -22.5t22.5 -9.5h768q13 0 22.5 9.5t9.5 22.5v160q0 13 -9.5 22.5t-22.5 9.5z" />
    <glyph glyph-name="uniE761" unicode="&#xe761;" 
d="M920 581l-247 242q-9 9 -23 9q-13 0 -22 -9l-459 -471q-7 -7 -9 -16l-62 -331q-3 -17 9 -29q9 -9 22 -9q4 0 7 1l293 65q9 2 16 9l476 494q9 10 8.5 23t-9.5 22zM434 123l-123 121q-9 10 -22.5 10t-22.5 -9.5t-9 -23t9 -22.5l113 -111l-209 -47l51 273l430 441l201 -197z
" />
    <glyph glyph-name="uniE769" unicode="&#xe769;" 
d="M64 685h670v22h-670v-22zM64 373h670v22h-670v-22zM64 60h670v23h-670v-23zM823 707v-22h134v22h-134zM823 373h134v22h-134v-22zM823 60h134v23h-134v-23z" />
    <glyph glyph-name="uniE78B" unicode="&#xe78b;" 
d="M160 -32q-18 0 -27 15q-7 11 -4 24t14 20q17 11 43 25.5t88.5 38.5t109.5 27v18q-91 37 -145.5 124.5t-54.5 195.5q0 93 44 172.5t118.5 125.5t163 46t163.5 -46t118.5 -125.5t43.5 -172.5q0 -108 -52.5 -194t-142.5 -124v-21q47 -4 109 -28t88.5 -38t42.5 -24
q12 -6 15 -19t-3.5 -24.5t-19.5 -14.5t-24 3q-131 76 -215 82h-25q-13 0 -22.5 9t-9.5 23v74q0 23 22 30q79 27 126 99.5t47 166.5q0 116 -76.5 198t-184.5 82t-185 -82t-77 -198q0 -94 49 -168t129 -100q22 -7 22 -30v-72q0 -14 -9.5 -23t-22.5 -9h-31q-38 -2 -93.5 -24.5
t-77.5 -35t-37 -21.5q-8 -5 -17 -5z" />
    <glyph glyph-name="uniE791" unicode="&#xe791;" 
d="M887 599l-192 192q-5 4 -11 6.5t-12 2.5h-448q-40 0 -68 -28t-28 -68v-640q0 -40 28 -68t68 -28h576q40 0 68 28t28 68v512q0 13 -9 23zM704 691l115 -115h-115v115zM800 32h-576q-13 0 -22.5 9.5t-9.5 22.5v640q0 13 9.5 22.5t22.5 9.5h416v-192q0 -13 9.5 -22.5
t22.5 -9.5h160v-448q0 -13 -9.5 -22.5t-22.5 -9.5zM288 544h192q13 0 22.5 9.5t9.5 22.5t-9.5 22.5t-22.5 9.5h-192q-13 0 -22.5 -9.5t-9.5 -22.5t9.5 -22.5t22.5 -9.5zM608 416h-320q-13 0 -22.5 -9.5t-9.5 -22.5t9.5 -22.5t22.5 -9.5h320q13 0 22.5 9.5t9.5 22.5
t-9.5 22.5t-22.5 9.5zM608 224h-320q-13 0 -22.5 -9.5t-9.5 -22.5t9.5 -22.5t22.5 -9.5h320q13 0 22.5 9.5t9.5 22.5t-9.5 22.5t-22.5 9.5z" />
  </font>
</defs>
</svg>
